<?xml version="1.0" standalone="no"?>
<!DOCTYPE svg PUBLIC "-//W3C//DTD SVG 1.1//EN" "http://www.w3.org/Graphics/SVG/1.1/DTD/svg11.dtd" >
<svg>
<metadata>
Created by FontForge 20090914 at Fri Feb 24 04:41:22 2012
 By root
&#194;&#169;2002 by Andrew Leman. Digitized from vintage copies of the Toronto Star exclusively for the HPLHS.
</metadata>
<defs>
<font id="HeadlineOneHPLHS" horiz-adv-x="362" >
  <font-face 
    font-family="Headline One"
    font-weight="400"
    font-stretch="normal"
    units-per-em="1000"
    panose-1="0 0 4 0 0 0 0 0 0 0"
    ascent="800"
    descent="-200"
    x-height="804"
    cap-height="802"
    bbox="-14 -126 5120 873"
    underline-thickness="20"
    underline-position="-123"
    unicode-range="U+0020-U+2022"
  />
<missing-glyph horiz-adv-x="500" 
d="M63 0v870h375v-870h-375zM125 63h250v745h-250v-745z" />
    <glyph glyph-name=".notdef" horiz-adv-x="500" 
d="M63 0v870h375v-870h-375zM125 63h250v745h-250v-745z" />
    <glyph glyph-name=".null" horiz-adv-x="0" 
 />
    <glyph glyph-name="nonmarkingreturn" horiz-adv-x="184" 
 />
    <glyph glyph-name="space" unicode=" " horiz-adv-x="184" 
 />
    <glyph glyph-name="exclam" unicode="!" horiz-adv-x="297" 
d="M208 462q0 -28 -1 -35q-8 -70 -23 -181q-4 -20 -22 -20q-10 0 -36 -2q-21 -1 -30 0q-20 2 -21 25q-2 37 -19 179q-2 11 -4 34q-1 34 0 135q1 139 1 186q0 17 23 19h104q23 0 23 -13q0 -73 2.5 -190t2.5 -137zM208 -4q0 -10 -22 -10q-23 0 -59.5 1t-46.5 1q-25 0 -26 24
q-1 57 0 114q0 18 26 18q75 0 108 2q19 1 20 -20q2 -36 0 -130z" />
    <glyph glyph-name="quotedbl" unicode="&#x22;" 
d="M316 633q1 -20 -14 -105q-2 -11 -12 -12q-8 -1 -69 1q-3 0 -9 9.5t-7 15.5q-10 50 -10 91v155q0 5 4 9t8 4q31 -1 95 1q13 0 13 -19q0 -134 1 -150zM157 629q0 -2 -18 -103q-2 -11 -12 -12q-8 -1 -69 1q-10 0 -12 9q-14 70 -14 107v155q0 5 3.5 9t8.5 4l65 2
q47 -1 47 -22q0 -134 1 -150z" />
    <glyph glyph-name="numbersign" unicode="#" horiz-adv-x="552" 
d="M501 276q0 -7 -15 -9q-32 -1 -67 -4q-5 -3 -5 -14v-221q0 -24 -17 -26q-36 -4 -84 1q-17 2 -17 27v95q-1 77 -1 124q0 13 -7 13q-46 0 -36 1q-7 -1 -7 -13q0 -51 1 -133v-92q0 -24 -17 -26q-36 -4 -84 1q-17 2 -17 27v94q-1 76 -1 124q0 15 -10 17q-27 0 -63 2q-9 1 -9 8
v29q0 8 18 8l22 -2q18 -1 31 0q8 1 10 15q3 25 0 96q-1 14 -9 15q-28 0 -65 1q-9 1 -9 8v29q0 8 18 8q65 0 57 -1q8 1 8 15l-1 307q1 31 20 30q86 -6 79 -6q10 1 15 -10t5 -25v-296q0 -14 7 -15q10 -2 38 2q6 1 6 15l1 305q0 10 9.5 19t19.5 8q31 -2 67 0q24 -5 23 -38
q-1 -44 -1 -293q0 -15 10 -15h30q23 1 24 1q21 0 21 -10v-26q0 -7 -15 -9q-21 -1 -61 -2q-9 0 -9 -11v-101q0 -13 8 -13q9 0 32.5 1t25.5 1q21 0 21 -10v-26zM295 324v93q0 14 -8.5 15t-35.5 1q-8 0 -7 -15q0 -38 1 -99q0 -11 8 -12q12 -2 39 3q3 1 3 14z" />
    <glyph glyph-name="dollar" unicode="$" horiz-adv-x="381" 
d="M340 178q0 -81 -39 -131.5t-111 -57.5v-45q0 -8 -12 -8h-12q-10 1 -12 1q-8 0 -8 7v46q-64 9 -106 62q-46 58 -44 144q0 16 1 52q1 21 11 21t56.5 2t56.5 2t10 -26v-49q0 -40 16 -60l3 173q-88 88 -96 98q-52 61 -52 111v85q0 85 37 139q41 57 118 66v9q0 10 8 10
q12 0 17 1q6 2 6 -6v-13q68 -2 107 -51.5t39 -125.5v-99q0 -15 -11 -16q-29 -3 -109 0q-13 0 -13 15q-1 23 2 80q1 35 -15 54q0 -36 1 -102v-97l98 -106q53 -65 53 -116v-69zM156 671q-22 -15 -22 -61v-52q0 -20 20 -48q2 104 2 161zM205 231q1 15 -16 37q0 -22 1 -67v-69
q12 10 13 43z" />
    <glyph glyph-name="percent" unicode="%" horiz-adv-x="572" 
d="M437 701q-1 -13 -15 -38q-90 -160 -133 -300q-51 -169 -51 -360q0 -11 -15 -13q-29 -3 -49 -2q-22 2 -22 20q0 165 72 376q19 54 109 268q11 26 -15 26q-7 0 -31.5 -1t-35.5 -1q-14 0 -17 -7v-13l-4 -166q-2 -86 -118 -86t-116 86l1 240q0 82 115 82q11 0 29.5 -5
t30.5 -6q90 -1 238 -3q28 0 27 -19q1 -27 0 -78zM537 302l-6 -231q-2 -87 -118 -87q-118 0 -116 87l6 226q1 55 32 77q25 18 78 18q60 0 88 -16q37 -21 36 -74zM134 699q0 31 -21 31t-21 -33l-1 -185q0 -20 4.5 -25t17.5 -5q20 0 20 29zM436 278q0 30 -21 30q-13 0 -17 -5.5
t-4 -24.5l-1 -190q0 -20 4.5 -24t17.5 -4q20 0 20 26z" />
    <glyph glyph-name="ampersand" unicode="&#x26;" horiz-adv-x="442" 
d="M422 368q1 -53 -23 -134q-19 -66 -35 -96q-6 -11 3 -28l45 -92q12 -24 -1 -24q-9 0 -95 2q-14 0 -19 9q-1 1 -9 20q-3 6 -7 6q-1 0 -17 -11q-54 -39 -120 -39q-47 0 -88.5 35t-41.5 82l1 182q0 45 24 77q6 8 40 40q8 7 -1 21l-16 21q-10 18 -10 43l3 224q1 101 141 100
q142 -1 141 -99l-2 -198q-1 -66 -93 -107q-11 -5 -2 -21l42 -91q6 -13 8 -13t5 6q5 12 20 91q2 12 23 12q25 0 62 2q22 1 22 -20zM233 657q0 19 -9.5 28t-23.5 9q-35 -1 -36 -32l-2 -104q0 -15 16 -52q3 -6 19 0q35 13 35 45zM214 161q-19 45 -51 111q-8 13 -16 3
q-12 -16 -12 -34q0 -88 1 -108q1 -27 28 -27q28 0 45 22q13 16 5 33z" />
    <glyph glyph-name="quotesingle" unicode="'" horiz-adv-x="182" 
d="M157 629q0 -2 -18 -103q-2 -11 -12 -12q-8 -1 -69 1q-10 0 -12 9q-14 70 -14 107v155q0 5 3.5 9t8.5 4l65 2q47 -1 47 -22q0 -134 1 -150z" />
    <glyph glyph-name="parenleft" unicode="(" horiz-adv-x="214" 
d="M173 728q0 -7 -7 -13t-11 -5q-38 6 -38 -74l-2 -503q0 -41 10 -54q8 -9 28 -9q15 0 15 -11q0 -3 1 -22.5t1 -42.5q0 -14 -18 -14q-83 0 -119 42q-34 39 -34 126v463q0 109 44 155q36 38 109 38q21 0 21 -4q-1 -33 0 -72z" />
    <glyph glyph-name="parenright" unicode=")" horiz-adv-x="230" 
d="M183 167q0 -109 -44 -155q-36 -38 -109 -38q-21 0 -21 4q1 33 0 72q0 7 7 13t11 5q38 -6 38 74l2 503q0 41 -10 54q-8 9 -28 9q-15 0 -15 11q0 3 -1 24q-1 18 -1 41q0 14 18 14q83 0 118 -40.5t35 -127.5v-463z" />
    <glyph glyph-name="comma" unicode="," horiz-adv-x="212" 
d="M182 241q1 -36 -1 -223q0 -49 -56 -71q-35 -13 -77 -13q-17 0 -17 8v30q1 26 1 32.5t11 6.5q24 0 42.5 11.5t18.5 33.5v36q0 9 -16 8q-36 -1 -48 0q-14 2 -14 14q-1 47 1 129q0 12 15 12q86 0 122 -1q18 0 18 -13z" />
    <glyph glyph-name="hyphen" unicode="-" horiz-adv-x="303" 
d="M274 277q0 -17 -18 -17q-67 -2 -192 2q-16 0 -18 12q-1 7 -1 125q0 15 19 14q91 -3 193 0q17 0 17 -13v-123z" />
    <glyph glyph-name="hyphen" unicode="&#x2010;" horiz-adv-x="303" 
d="M274 277q0 -17 -18 -17q-67 -2 -192 2q-16 0 -18 12q-1 7 -1 125q0 15 19 14q91 -3 193 0q17 0 17 -13v-123z" />
    <glyph glyph-name="period" unicode="." horiz-adv-x="250" 
d="M190 11q0 -22 -13 -22q-21 0 -65 -1q-38 -1 -57 -1t-20 10t-1 127q0 20 11 20t56 1.5t72 1.5q16 0 16 -10q1 -28 1 -126z" />
    <glyph glyph-name="slash" unicode="/" horiz-adv-x="264" 
d="M273 850q-18 -80 -109 -460q-93 -386 -100 -409q-3 -11 -5 -22q-4 -7 -24 -7q-5 0 -12 1t-12 1q-14 0 -16 10q0 3 3 21q24 143 109 489q62 255 95 375q6 23 25 23q5 0 17 1h18q16 0 11 -23z" />
    <glyph glyph-name="zero" unicode="0" 
d="M312 148q0 -168 -160 -168q-83 0 -119 42q-34 39 -34 126v463q0 109 44 155q36 38 109 38q78 0 114 -33q46 -42 46 -148v-475zM192 182v409q0 46 -9 61q-7 12 -26 12q-38 0 -38 -74v-409q0 -41 10 -54q8 -9 28 -9q19 0 26 10q9 14 9 54z" />
    <glyph glyph-name="one" unicode="1" horiz-adv-x="260" 
d="M220 785l-2 -777q0 -20 -13 -20h-106q-13 1 -13 13v611q0 17 -8 17q-26 1 -66 4q-10 1 -10 17v48q0 15 7 20q31 22 103 69q1 1 12 10q6 5 11 4q8 -1 71 -1q14 0 14 -15z" />
    <glyph glyph-name="two" unicode="2" 
d="M328 476q0 -88 -44 -160q-9 -14 -83 -103q-45 -54 -45 -99q1 -4 12 -9q25 -2 69 0q58 3 71 3q12 0 12 -8v-100q0 -13 -13 -13l-291 1q-12 0 -13 10q-1 11 0 39q0 99 53 189q3 5 99 136q53 72 53 128v100q0 48 -3 62q-8 35 -37 35q-21 0 -27 -51q-2 -19 -2 -82v-27
q0 -15 -10.5 -16t-95.5 -1q-15 0 -15 18.5t-1 68.5q-2 115 41 164q39 45 123 45q67 0 108 -40q38 -38 38 -96z" />
    <glyph glyph-name="three" unicode="3" horiz-adv-x="379" 
d="M336 258l-3 -164q-1 -50 -46.5 -79t-105.5 -29q-91 0 -134 35q-46 38 -45 124q2 62 1 88q2 5 8 9q52 -2 109 0q13 0 13 -16q0 -9 1 -39q2 -76 38 -78q27 -1 34 33q3 17 4 88q2 113 -55 113q-6 0 -14 -1t-10 -1q-11 0 -11 16q0 63 1 91q1 19 8 19q33 0 47 8q38 23 38 98
q0 53 -7 75q-9 30 -34 32q-13 1 -25.5 -15.5t-12.5 -36.5q1 -28 1 -41q0 -16 -10 -16q-4 0 -49 1h-49q-10 0 -10 13q-1 28 0 102q0 67 51 95q39 20 117 22q50 1 90 -23q48 -29 49 -79l2 -146q1 -44 -16 -86q-13 -32 -29 -47q-10 -10 -1 -18q16 -14 34 -55q22 -50 21 -92z
" />
    <glyph glyph-name="four" unicode="4" horiz-adv-x="432" 
d="M391 203q0 -12 -7.5 -13t-57.5 -1q-13 0 -13 -10v-176q0 -16 -28 -18h-96q-13 0 -14 17v175q0 11 -12 11q-9 0 -68 -2q-49 -1 -69 0q-10 1 -10 11v121l5 14l159 454q4 13 20 13h98q15 0 15 -13q-1 -60 -1 -163q0 -66 1 -173q1 -101 1 -119q0 -13 6 -13q33 -2 63 0
q8 0 8 -11v-104zM176 542q0 18 -3 18q-6 0 -9 -17l-67 -216q-3 -9 9 -10q17 -1 60 1q8 0 8 11q2 124 2 213z" />
    <glyph glyph-name="five" unicode="5" horiz-adv-x="386" 
d="M329 125q0 -81 -40 -114.5t-120 -30.5q-167 6 -167 219q-1 22 0 32q1 13 15 13h47q36 -1 45 -1q18 0 18 -16v-31q0 -60 42 -60q38 0 38 56v142q0 23 -13 43t-30 20q-33 0 -37 -39q-1 -13 -17 -15q-42 -5 -94 1q-11 1 -11 14v412q0 7 2.5 10t8.5 3q100 -1 287 -1
q11 0 11 -13v-99q0 -13 -12.5 -14t-195.5 -1q-12 0 -12 -13v-66q-1 -49 -1 -75q0 -20 7 -11q32 54 106 51q70 -3 96.5 -44t26.5 -148v-224z" />
    <glyph glyph-name="six" unicode="6" horiz-adv-x="374" 
d="M327 120q1 -136 -178 -136q-57 0 -99 37q-48 42 -48 112l2 491q0 93 36.5 135t121.5 42q156 0 154 -219q0 -15 -12 -15q-59 -2 -85 1q-16 2 -16 12v20q0 31 -10.5 49t-22.5 19q-43 4 -44 -72q-3 -86 -1 -125q1 -14 5 -14q2 0 6 3q25 21 61 21q50 0 87 -35q42 -39 42 -100
zM212 154v170q0 35 -47 35q-12 0 -23.5 -20t-11.5 -42v-126q0 -21 7 -43q10 -28 26 -27q49 2 49 53z" />
    <glyph glyph-name="seven" unicode="7" horiz-adv-x="385" 
d="M342 716q0 -21 -6 -33q-64 -129 -106 -303q-44 -181 -44 -381q0 -11 -8 -11q-72 -2 -121 0q-10 0 -10 10q0 108 17 203q11 57 49 202q16 61 44 141l34 94q4 12 -19 12h-146q-23 -1 -24 22v115q0 16 26 15q40 -2 150 0q143 2 144 2q20 0 20 -19v-69z" />
    <glyph glyph-name="eight" unicode="8" horiz-adv-x="373" 
d="M334 140q0 -163 -165 -160q-163 2 -163 153v189q0 40 21 64q10 11 41 31q-29 18 -38 28q-19 24 -19 69l1 157q1 137 158 137q70 0 112 -38q45 -41 44 -116l-1 -149q0 -59 -52 -91q33 -18 39 -25q22 -22 22 -65v-184zM202 525v131q0 14 -9.5 24t-21.5 10q-33 0 -33 -35
v-130q0 -16 9.5 -26.5t23.5 -10.5q12 0 21.5 11t9.5 26zM204 119v188q0 34 -33 34q-34 0 -34 -35v-189q0 -15 10 -25t23 -10t23.5 11t10.5 26z" />
    <glyph glyph-name="nine" unicode="9" horiz-adv-x="374" 
d="M334 657l-2 -491q0 -93 -36.5 -135t-121.5 -42q-90 0 -130 89q-27 59 -25 128q1 18 12 17q16 -2 86 -2q17 0 17 -14q0 -6 -1 -17q-2 -31 9 -49t24 -19q44 -4 44 72q1 77 0 121q0 17 -5 17q-3 0 -5 -2q-33 -24 -70 -24q-49 0 -83 37q-37 39 -37 101l-1 226q-1 136 178 136
q57 0 99 -37q48 -42 48 -112zM206 493v126q0 21 -7 43q-10 28 -26 27q-49 -2 -49 -53v-170q0 -35 47 -35q12 0 23.5 20t11.5 42z" />
    <glyph glyph-name="colon" unicode=":" horiz-adv-x="250" 
d="M210 531q0 -22 -13 -22q-21 0 -65 -1q-38 -1 -57 -1t-20 10t-1 127q0 20 11 20t56 1.5t72 1.5q16 0 16 -10q1 -28 1 -126zM210 11q0 -22 -13 -22q-21 0 -65 -1q-38 -1 -57 -1t-20 10t-1 127q0 20 11 20t56 1.5t72 1.5q16 0 16 -10q1 -28 1 -126z" />
    <glyph glyph-name="semicolon" unicode=";" horiz-adv-x="212" 
d="M180 526q0 -22 -13 -22q-21 0 -65 -1q-38 -1 -57 -1t-20 10t-1 127q0 20 11 20t56 1.5t72 1.5q16 0 16 -10q1 -28 1 -126zM182 241q1 -36 -1 -223q0 -49 -56 -71q-35 -13 -77 -13q-17 0 -17 8v30q1 26 1 32.5t11 6.5q24 0 42.5 11.5t18.5 33.5v36q0 9 -16 8q-36 -1 -48 0
q-14 2 -14 14q-1 47 1 129q0 12 15 12q86 0 122 -1q18 0 18 -13z" />
    <glyph glyph-name="question" unicode="?" horiz-adv-x="392" 
d="M331 684l-2 -212q-1 -66 -37 -112q-29 -37 -60 -41q-10 -1 -10 -17q0 -5 1 -33v-35t-14 -13q-33 -5 -80 -3q-13 0 -14 13q-1 22 -1 185q0 14 13 17q19 4 26 7q14 6 29 20q22 20 20 172q-1 53 -41 53q-41 0 -43 -51l-2 -58q0 -13 -15 -13h-91q-5 0 -9 3t-3 9q1 8 2 83
q2 84 44 117q38 30 128 30q65 0 112.5 -33.5t46.5 -87.5zM232 16q0 -26 -20 -28q-40 -4 -90 0q-16 1 -16 18q1 46 0 112q-1 10 6 18.5t16 7.5q33 1 86 0q14 -1 16 -28q2 -34 2 -100z" />
    <glyph glyph-name="A" unicode="A" horiz-adv-x="447" 
d="M406 -8q1 -6 -9 -6h-52q-38 1 -66 1q-9 0 -23 65q-10 49 -15 84q-1 7 -11 7h-39q-7 0 -9 -7q-9 -60 -24 -139q-4 -9 -9 -9h-123q-16 0 -13 12l68 409q67 394 80 395q54 3 108 0q12 -1 74 -396zM232 269q-15 114 -19 114q-5 0 -12 -49l-8 -65q-1 -3 9.5 -4.5t19.5 -0.5
q10 1 10 5z" />
    <glyph glyph-name="B" unicode="B" horiz-adv-x="395" 
d="M356 103q0 -71 -69 -96q-53 -20 -178 -20h-96q-10 0 -10 15l-1 796q0 12 6 12h188q60 0 104 -44.5t43 -103.5l-1 -106q-1 -59 -12 -86q-15 -36 -62 -64q33 -16 59 -52q29 -40 29 -82v-169zM207 615q1 34 -6 48q-10 21 -41 21q-17 1 -23 0t-6 -10q1 -50 1 -183
q0 -13 7 -13q20 -2 42.5 10.5t23.5 35.5zM212 208l-1 59q-1 57 -68 57q-7 0 -7 -11v-179q0 -13 11 -13h14q52 0 51 87z" />
    <glyph glyph-name="C" unicode="C" horiz-adv-x="374" 
d="M335 204q0 -92 -39 -151q-44 -67 -128 -67q-98 0 -136 84q-26 58 -26 177v386q0 53 29 106q44 81 133 81q95 0 136 -72q33 -55 31 -147q0 -30 -1 -46t-15 -18t-50 -1q-50 2 -45 2q-18 0 -19 17v71q-6 52 -37 52q-41 0 -41 -178v-284q0 -28 8 -53q11 -35 33 -35
q39 0 39 105v28q-1 17 -1 20q0 18 14 18q63 0 100 -1q15 0 15 -17q1 -26 0 -77z" />
    <glyph glyph-name="D" unicode="D" horiz-adv-x="373" 
d="M339 269q0 -281 -178 -281h-134q-14 0 -14 17l-1 786q0 15 12 16q33 2 150 1q89 1 132 -87q33 -69 33 -180v-272zM211 307v250q0 42 -22.5 79.5t-48.5 37.5q-8 0 -8 -14q0 -4 1 -201v-316q0 -15 7 -15q24 -1 47.5 54.5t23.5 124.5z" />
    <glyph glyph-name="E" unicode="E" horiz-adv-x="313" 
d="M281 1q0 -12 -16 -13q-138 -7 -251 2q-11 1 -11 19l-1 781q0 11 11 11q77 1 249 -1q16 0 16 -12v-54q-1 -47 -1 -59.5t-11 -12.5h-115q-15 0 -15 -11q0 -5 -1 -71q-1 -56 0 -84q0 -11 12 -13q21 -3 93 -1q13 0 14 -12q1 -18 -1 -67q-2 -57 -2 -67q0 -14 -11 -14h-90
q-10 0 -12 -15q-5 -42 -2 -159q0 -13 18 -15q39 1 110 2q16 0 16 -13q0 -81 1 -121z" />
    <glyph glyph-name="F" unicode="F" horiz-adv-x="334" 
d="M304 787q0 -67 -1 -102q0 -9 -16 -11q-45 0 -123 -1q-12 -1 -12 -14v-176q0 -15 10 -15q22 -1 101 2q14 0 15 -13q4 -40 0 -131q0 -10 -10 -10q-37 1 -104 0q-11 -1 -12 -13q-2 -35 -1 -139q2 -147 2 -153q0 -13 -14 -14q-69 -7 -128 -1q-13 1 -13 14v776q0 15 16 15
q46 1 145 0l130 -1q15 0 15 -13z" />
    <glyph glyph-name="G" unicode="G" horiz-adv-x="413" 
d="M369 17q0 -27 -10 -27h-28q-9 0 -13 13t-13 35q-17 -50 -112 -50q-103 0 -145 52q-37 46 -36 152l2 408q1 124 41 168q36 39 129 39q111 0 151 -56q30 -40 31 -135q3 -89 2 -131q0 -17 -13 -17q-35 -1 -109 1q-12 0 -13 15l-4 117q-7 80 -37 80q-37 0 -37 -79v-421
q0 -16 10 -38q12 -27 28 -27q40 0 40 108v51q0 13 -8 12h-24q-9 0 -9 9v97q0 15 15 15q53 0 147 -1q15 0 15 -17v-373z" />
    <glyph glyph-name="H" unicode="H" horiz-adv-x="379" 
d="M332 784q2 -105 -1 -415q-3 -330 -3 -358q0 -15 -18.5 -18.5t-47.5 -2.5q-32 1 -40 0q-13 -1 -13 25l1 309q-1 13 -13 15q-10 2 -54 0q-8 0 -9 -15q1 -123 -3 -311q-1 -18 -27 -21q-42 -6 -84 -2q-15 1 -16 23q-10 251 -2 771q0 17 10 17h109q15 -1 15 -17q0 1 -2 -124
q-2 -95 0 -148q0 -9 1 -12q1 -6 6 -7q22 -6 56 1q11 2 11 18v276q0 14 7 13q41 2 107 2q10 -1 10 -19z" />
    <glyph glyph-name="I" unicode="I" horiz-adv-x="187" 
d="M142 16q0 -24 -16 -28q-24 -7 -105 0q-20 2 -20 32q2 338 1 752q0 10 2 18q3 12 11 12q43 0 109 -2q17 -2 18 -28v-756z" />
    <glyph glyph-name="J" unicode="J" horiz-adv-x="375" 
d="M338 768q1 -62 -2 -561q0 -91 -46 -155q-48 -68 -125 -66q-70 2 -116 48q-50 49 -51 129q-4 117 -2 144q2 22 18 21q34 -3 88 0q16 1 18 -25q2 -19 0 -93q0 -93 47 -89q43 4 43 89v558q0 22 18 22q36 -1 93 0q17 1 17 -22z" />
    <glyph glyph-name="K" unicode="K" horiz-adv-x="380" 
d="M340 8q6 -17 -5 -18h-137q-8 0 -12 14q-13 46 -56 217q-4 16 -6 17q-1 0 -2 -17q-4 -72 -1 -216q0 -15 -11 -15h-98q-13 0 -13 19l-1 778q0 14 10 14q40 1 108 0q10 -1 10 -14q-5 -181 -4 -213q0 -7 3 -7q3 1 5 9q15 62 54 209q4 14 13 14q23 -1 65 0q50 2 52 2
q14 0 14 -14q0 -3 -1 -6q-21 -43 -80 -184q-60 -145 -58 -151z" />
    <glyph glyph-name="L" unicode="L" horiz-adv-x="313" 
d="M292 12q-1 -18 -26 -18q6 0 -132 -2q-84 -2 -117 2q-15 2 -15 24q-5 508 -3 764q0 28 18 25q21 -3 108 0q13 1 15 -10q-1 -9 -1 -19q3 -44 1 -271q-2 -247 1 -343q1 -23 23 -24h104q24 0 24 -18q1 -35 0 -110z" />
    <glyph glyph-name="M" unicode="M" horiz-adv-x="574" 
d="M534 20q0 -17 -1 -21q-3 -12 -12 -13q-4 -1 -124 2q-16 0 -17 22q-2 26 -1 92q0 44 1 115q1 68 1 73q0 21 -4 21q-5 0 -9 -17q-8 -36 -19 -132q-13 -115 -17 -144q-4 -25 -18.5 -28t-42.5 -3q-45 1 -44 1q-9 0 -15 28q-10 47 -21 161q-12 106 -15 119q-5 20 -11 20
q-4 0 -4 -21q0 -239 1 -279q1 -26 -15 -28h-117q-16 0 -18 34q-4 59 -4 168q0 125 6 366q5 207 4 226q-1 9 1 16q3 11 11 10q54 -4 114 -2q10 0 18 -22q11 -31 98 -314q8 -25 13 -25q6 0 13 25l95 316q6 21 23 20h105q14 0 14 -28l8 -346q6 -286 3 -412z" />
    <glyph glyph-name="N" unicode="N" horiz-adv-x="402" 
d="M370 780q-1 52 -5 -764q0 -26 -16 -29q-48 -8 -101 0q-18 3 -23 21l-77 340q-4 15 -12 15q-6 0 -6 -21v-142q-1 -120 -1 -187q0 -20 -25 -25q-17 -4 -45 -3q-36 1 -41 1q-20 -1 -21 23q-4 140 -2 422q2 273 7 347q2 24 13 25q24 1 65 0q50 -2 54 -2q14 0 18 -21
q50 -242 70 -312q8 -27 13 -27q7 0 5 31q-4 81 -4 308q0 23 20 22h93q21 -1 21 -22z" />
    <glyph glyph-name="O" unicode="O" 
d="M312 148q0 -168 -160 -168q-83 0 -119 42q-34 39 -34 126v463q0 109 44 155q36 38 109 38q78 0 114 -33q46 -42 46 -148v-475zM185 193v405q0 59 -28 59q-31 0 -31 -60v-405q0 -33 7 -41.5t24 -8.5q28 0 28 51z" />
    <glyph glyph-name="P" unicode="P" horiz-adv-x="336" 
d="M313 434q0 -73 -64 -113q-47 -29 -101 -29q-13 0 -13 -14q0 -91 -2 -273q0 -16 -11 -17q-35 -4 -106 0q-13 1 -13 13l-2 790q0 11 17 12q41 2 133 -1q59 0 108 -35q54 -37 54 -93v-240zM194 547q1 67 -6 97q-6 23 -17 28l-21 2q-4 0 -15 2q-4 1 -7 -4t-2 -11
q0 -75 1 -217q0 -9 10 -13q5 -2 13 1q24 2 31 15q12 23 13 100z" />
    <glyph glyph-name="Q" unicode="Q" horiz-adv-x="350" 
d="M316 176q0 -49 -13 -96q-24 -85 -82 -86q-20 0 -20 -16q0 -20 10 -21h87q2 0 6 -5t4 -8v-21q-1 -18 -1 -41q0 -8 -7 -8h-83q-63 1 -69 1q-9 0 -18.5 9.5t-9.5 18.5q0 7 1.5 25t1.5 27q0 40 -26 41q-35 1 -62 46q-30 51 -30 130v473q0 165 151 165q157 0 158 -152z
M196 214v385q0 46 -9 61q-7 11 -26 11q-37 0 -37 -73v-385q0 -81 37 -81q35 0 35 82z" />
    <glyph glyph-name="R" unicode="R" horiz-adv-x="381" 
d="M342 9q5 -22 -10 -23q-19 -2 -117 1q-11 0 -13 27q-5 68 -5 151q0 151 -53 151q-7 2 -12 0q-7 -3 -7 -22q0 -157 -1 -276q0 -26 -11 -27q-54 -6 -103 -2q-12 1 -12 29l2 770q0 18 18 18q55 0 150 1q62 0 105 -26q47 -29 47 -77l-1 -197q0 -49 -29 -84q-20 -25 -45 -34
q-8 -3 -8 -6q0 -2 8 -5q19 -6 40 -25q47 -41 47 -199q0 -101 10 -145zM198 619q0 66 -44 63q-10 -1 -15 -1q-9 0 -9 -17v-176q0 -28 14 -29q5 -1 12 0q22 0 30 22q12 32 12 138z" />
    <glyph glyph-name="S" unicode="S" horiz-adv-x="381" 
d="M340 178q0 -88 -45 -139t-127 -51q-71 0 -121 55q-53 59 -51 153q0 16 1 52q1 21 11 21t56.5 2t56.5 2t10 -26v-49q0 -72 39 -72q31 0 33 49l2 56q1 25 -52 77q-89 88 -98 99q-53 62 -53 113v85q0 91 43 145q46 59 134 61q72 1 115 -50q40 -48 40 -127v-99q0 -15 -11 -16
q-29 -3 -109 0q-13 0 -13 15q-1 23 2 80q1 21 -7.5 41.5t-22.5 20.5q-39 0 -39 -66v-52q0 -31 53 -88l100 -106q53 -66 53 -117v-69z" />
    <glyph glyph-name="T" unicode="T" horiz-adv-x="392" 
d="M343 682q0 -14 -17 -14q-7 0 -30 1h-36q-21 0 -21 -15l2 -645q0 -16 -11 -17q-36 -5 -114 1q-13 1 -13 17l-1 645q0 14 -12 14h-74q-16 1 -16 14q0 -11 -2 41q-2 34 2 53q4 26 18 26q124 1 309 0q14 0 15 -18q2 -62 1 -103z" />
    <glyph glyph-name="U" unicode="U" horiz-adv-x="400" 
d="M353 785l-2 -619q0 -58 -25 -102q-43 -76 -147 -76q-117 0 -152 56q-24 36 -24 139v602q0 8 3.5 13.5t9.5 5.5h107q17 0 17 -15v-311q-1 -277 -1 -270q0 -78 41 -78q36 0 36 78v576q-1 20 13 20q99 0 111.5 -1t12.5 -18z" />
    <glyph glyph-name="V" unicode="V" horiz-adv-x="430" 
d="M401 783q-31 -172 -62 -391q-37 -258 -58 -386q-3 -19 -15 -19h-122q-16 0 -19 19q-20 127 -54 393q-31 248 -55 390q-1 7 4 13t12 6q44 0 113 -1q16 0 21 -21q3 -14 13.5 -124t25.5 -178q4 -16 8 -16t7 17q10 62 21 172q9 100 15 130q3 17 17 17q72 2 112 -3
q19 -2 16 -18z" />
    <glyph glyph-name="W" unicode="W" horiz-adv-x="651" 
d="M608 787q-21 -166 -58 -377l-71 -398q-3 -17 -15 -18q-41 -5 -97 0q-13 1 -15 15q-16 162 -39 361q-3 20 -7 20t-8 -19q-7 -39 -21 -186q-15 -157 -17.5 -172.5t-16.5 -17.5q-50 -6 -102 -1q-14 1 -16 17l-56 327q-47 281 -64 450q-2 20 13 20h107q17 -2 20 -22t43 -354
q1 -11 6 -11q4 0 7 12q6 97 36 355q3 20 18 19h66q49 -2 51 -22l40 -379q1 -15 6 -15q8 0 11 19q10 64 26.5 215.5t18.5 162.5q3 19 22 18q44 2 103 2q12 -1 9 -21z" />
    <glyph glyph-name="X" unicode="X" horiz-adv-x="425" 
d="M400 22q7 -16 7 -23q0 -14 -17 -14q-4 0 -32 -1t-46 -1q-28 0 -43.5 2t-24.5 29l-42 152q-8 29 -11 29q-4 0 -12 -34q-7 -44 -31 -139l-8 -23q-6 -11 -17 -12q10 1 -114 1q-23 0 -23 18q0 4 2 8q63 152 141 382q6 17 -6 51l-107 327q-3 10 -1 20q3 11 11 10q68 -6 100 -2
q18 2 27 -26q6 -20 37 -138q7 -27 12 -27q4 0 9 16q14 57 39 149q8 27 28 26q41 0 103 -2q22 -2 17 -20q-21 -68 -131 -337q-10 -24 -4 -47q32 -122 137 -374z" />
    <glyph glyph-name="Y" unicode="Y" horiz-adv-x="379" 
d="M350 774q-17 -45 -52 -154q-44 -138 -54 -186q-2 -9 0 -38q-1 -156 0 -374q1 -30 -18 -31q14 1 -103 4q-20 0 -21 25q3 170 4 380q0 8 -3 28q-41 151 -110 359q-2 7 4.5 14.5t14.5 8.5q46 3 94 0q28 -2 32 -27l28 -131q8 -37 12 -37q1 0 8 37q8 45 25 131q6 23 29 25
q33 -1 92 0q20 1 20 -25q0 -5 -2 -9z" />
    <glyph glyph-name="Z" unicode="Z" horiz-adv-x="377" 
d="M342 12q0 -10 -7 -18t-16 -8q-189 4 -296 2q-14 0 -15 24q0 13 -3 41q-2 25 -2 41q0 13 5 27q9 25 9 26l129 478q3 12 0 22q-3 11 -12 11q-60 -3 -104 0q-29 2 -29 29q0 19 2 49q3 35 3 44q1 21 20 20q34 -1 142 0q109 2 138 4q26 2 28 -23q3 -37 -2 -68l-14 -53
l-131 -498q-6 -29 5 -30q27 -3 125 2q22 1 23 -22q2 -36 2 -100z" />
    <glyph glyph-name="bracketleft" unicode="[" horiz-adv-x="234" 
d="M186 746q-1 -15 -12 -15q-20 1 -44 -1q-10 -1 -10 -21l-1 -627q0 -15 11 -16q16 -1 42 -4q12 -1 13 -20v-29q2 -18 -1 -21t-17 -4q-82 -5 -146 0q-20 2 -20 32q2 338 1 752q0 10 2 18q3 12 11 12q65 0 152 -2q19 -2 19 -18v-36z" />
    <glyph glyph-name="bracketright" unicode="]" horiz-adv-x="242" 
d="M209 770q-2 -338 -1 -752q0 -10 -2 -18q-3 -12 -11 -12q-65 0 -152 2q-19 2 -19 18v36q1 15 12 15q20 -1 44 1q10 1 10 21q0 87 2 366q1 248 1 274q0 15 -11 16h-42q-13 0 -14 14q0 9 -1 26q-2 18 1 21t17 4q82 5 146 0q20 -2 20 -32z" />
    <glyph glyph-name="a" unicode="a" horiz-adv-x="447" 
d="M406 -8q1 -6 -9 -6h-52q-38 1 -66 1q-9 0 -23 65q-10 49 -15 84q-1 7 -11 7h-39q-7 0 -9 -7q-9 -60 -24 -139q-4 -9 -9 -9h-123q-16 0 -13 12l68 409q67 394 80 395q54 3 108 0q12 -1 74 -396zM232 269q-15 114 -19 114q-5 0 -12 -49l-8 -65q-1 -3 9.5 -4.5t19.5 -0.5
q10 1 10 5z" />
    <glyph glyph-name="b" unicode="b" horiz-adv-x="395" 
d="M356 103q0 -71 -69 -96q-53 -20 -178 -20h-96q-10 0 -10 15l-1 796q0 12 6 12h188q60 0 104 -44.5t43 -103.5l-1 -106q-1 -59 -12 -86q-15 -36 -62 -64q33 -16 59 -52q29 -40 29 -82v-169zM207 615q1 34 -6 48q-10 21 -41 21q-17 1 -23 0t-6 -10q1 -50 1 -183
q0 -13 7 -13q20 -2 42.5 10.5t23.5 35.5zM212 208l-1 59q-1 57 -68 57q-7 0 -7 -11v-179q0 -13 11 -13h14q52 0 51 87z" />
    <glyph glyph-name="c" unicode="c" horiz-adv-x="374" 
d="M335 204q0 -92 -39 -151q-44 -67 -128 -67q-98 0 -136 84q-26 58 -26 177v386q0 53 29 106q44 81 133 81q95 0 136 -72q33 -55 31 -147q0 -30 -1 -46t-15 -18t-50 -1q-50 2 -45 2q-18 0 -19 17v71q-6 52 -37 52q-41 0 -41 -178v-284q0 -28 8 -53q11 -35 33 -35
q39 0 39 105v28q-1 17 -1 20q0 18 14 18q63 0 100 -1q15 0 15 -17q1 -26 0 -77z" />
    <glyph glyph-name="d" unicode="d" horiz-adv-x="373" 
d="M339 269q0 -281 -178 -281h-134q-14 0 -14 17l-1 786q0 15 12 16q33 2 150 1q89 1 132 -87q33 -69 33 -180v-272zM211 307v250q0 42 -22.5 79.5t-48.5 37.5q-8 0 -8 -14q0 -4 1 -201v-316q0 -15 7 -15q24 -1 47.5 54.5t23.5 124.5z" />
    <glyph glyph-name="e" unicode="e" horiz-adv-x="313" 
d="M281 1q0 -12 -16 -13q-138 -7 -251 2q-11 1 -11 19l-1 781q0 11 11 11q77 1 249 -1q16 0 16 -12v-54q-1 -47 -1 -59.5t-11 -12.5h-115q-15 0 -15 -11q0 -5 -1 -71q-1 -56 0 -84q0 -11 12 -13q21 -3 93 -1q13 0 14 -12q1 -18 -1 -67q-2 -57 -2 -67q0 -14 -11 -14h-90
q-10 0 -12 -15q-5 -42 -2 -159q0 -13 18 -15q39 1 110 2q16 0 16 -13q0 -81 1 -121z" />
    <glyph glyph-name="f" unicode="f" horiz-adv-x="334" 
d="M304 787q0 -67 -1 -102q0 -9 -16 -11q-45 0 -123 -1q-12 -1 -12 -14v-176q0 -15 10 -15q22 -1 101 2q14 0 15 -13q4 -40 0 -131q0 -10 -10 -10q-37 1 -104 0q-11 -1 -12 -13q-2 -35 -1 -139q2 -147 2 -153q0 -13 -14 -14q-69 -7 -128 -1q-13 1 -13 14v776q0 15 16 15
q46 1 145 0l130 -1q15 0 15 -13z" />
    <glyph glyph-name="g" unicode="g" horiz-adv-x="413" 
d="M369 17q0 -27 -10 -27h-28q-9 0 -13 13t-13 35q-17 -50 -112 -50q-103 0 -145 52q-37 46 -36 152l2 408q1 124 41 168q36 39 129 39q111 0 151 -56q30 -40 31 -135q3 -89 2 -131q0 -17 -13 -17q-35 -1 -109 1q-12 0 -13 15l-4 117q-7 80 -37 80q-37 0 -37 -79v-421
q0 -16 10 -38q12 -27 28 -27q40 0 40 108v51q0 13 -8 12h-24q-9 0 -9 9v97q0 15 15 15q53 0 147 -1q15 0 15 -17v-373z" />
    <glyph glyph-name="h" unicode="h" horiz-adv-x="379" 
d="M332 784q2 -105 -1 -415q-3 -330 -3 -358q0 -15 -18.5 -18.5t-47.5 -2.5q-32 1 -40 0q-13 -1 -13 25l1 309q-1 13 -13 15q-10 2 -54 0q-8 0 -9 -15q1 -123 -3 -311q-1 -18 -27 -21q-42 -6 -84 -2q-15 1 -16 23q-10 251 -2 771q0 17 10 17h109q15 -1 15 -17q0 1 -2 -124
q-2 -95 0 -148q0 -9 1 -12q1 -6 6 -7q22 -6 56 1q11 2 11 18v276q0 14 7 13q41 2 107 2q10 -1 10 -19z" />
    <glyph glyph-name="i" unicode="i" horiz-adv-x="187" 
d="M142 16q0 -24 -16 -28q-24 -7 -105 0q-20 2 -20 32q2 338 1 752q0 10 2 18q3 12 11 12q43 0 109 -2q17 -2 18 -28v-756z" />
    <glyph glyph-name="j" unicode="j" horiz-adv-x="375" 
d="M338 768q1 -62 -2 -561q0 -91 -46 -155q-48 -68 -125 -66q-70 2 -116 48q-50 49 -51 129q-4 117 -2 144q2 22 18 21q34 -3 88 0q16 1 18 -25q2 -19 0 -93q0 -93 47 -89q43 4 43 89v558q0 22 18 22q36 -1 93 0q17 1 17 -22z" />
    <glyph glyph-name="k" unicode="k" horiz-adv-x="380" 
d="M340 8q6 -17 -5 -18h-137q-8 0 -12 14q-13 46 -56 217q-4 16 -6 17q-1 0 -2 -17q-4 -72 -1 -216q0 -15 -11 -15h-98q-13 0 -13 19l-1 778q0 14 10 14q40 1 108 0q10 -1 10 -14q-5 -181 -4 -213q0 -7 3 -7q3 1 5 9q15 62 54 209q4 14 13 14q23 -1 65 0q50 2 52 2
q14 0 14 -14q0 -3 -1 -6q-21 -43 -80 -184q-60 -145 -58 -151z" />
    <glyph glyph-name="l" unicode="l" horiz-adv-x="313" 
d="M292 12q-1 -18 -26 -18q6 0 -132 -2q-84 -2 -117 2q-15 2 -15 24q-5 508 -3 764q0 28 18 25q21 -3 108 0q13 1 15 -10q-1 -9 -1 -19q3 -44 1 -271q-2 -247 1 -343q1 -23 23 -24h104q24 0 24 -18q1 -35 0 -110z" />
    <glyph glyph-name="m" unicode="m" horiz-adv-x="574" 
d="M534 20q0 -17 -1 -21q-3 -12 -12 -13q-4 -1 -124 2q-16 0 -17 22q-2 26 -1 92q0 44 1 115q1 68 1 73q0 21 -4 21q-5 0 -9 -17q-8 -36 -19 -132q-13 -115 -17 -144q-4 -25 -18.5 -28t-42.5 -3q-45 1 -44 1q-9 0 -15 28q-10 47 -21 161q-12 106 -15 119q-5 20 -11 20
q-4 0 -4 -21q0 -239 1 -279q1 -26 -15 -28h-117q-16 0 -18 34q-4 59 -4 168q0 125 6 366q5 207 4 226q-1 9 1 16q3 11 11 10q54 -4 114 -2q10 0 18 -22q11 -31 98 -314q8 -25 13 -25q6 0 13 25l95 316q6 21 23 20h105q14 0 14 -28l8 -346q6 -286 3 -412z" />
    <glyph glyph-name="n" unicode="n" horiz-adv-x="402" 
d="M370 780q-1 52 -5 -764q0 -26 -16 -29q-48 -8 -101 0q-18 3 -23 21l-77 340q-4 15 -12 15q-6 0 -6 -21v-142q-1 -120 -1 -187q0 -20 -25 -25q-17 -4 -45 -3q-36 1 -41 1q-20 -1 -21 23q-4 140 -2 422q2 273 7 347q2 24 13 25q24 1 65 0q50 -2 54 -2q14 0 18 -21
q50 -242 70 -312q8 -27 13 -27q7 0 5 31q-4 81 -4 308q0 23 20 22h93q21 -1 21 -22z" />
    <glyph glyph-name="o" unicode="o" 
d="M312 148q0 -168 -160 -168q-83 0 -119 42q-34 39 -34 126v463q0 109 44 155q36 38 109 38q78 0 114 -33q46 -42 46 -148v-475zM185 193v405q0 59 -28 59q-31 0 -31 -60v-405q0 -33 7 -41.5t24 -8.5q28 0 28 51z" />
    <glyph glyph-name="p" unicode="p" horiz-adv-x="336" 
d="M313 434q0 -73 -64 -113q-47 -29 -101 -29q-13 0 -13 -14q0 -91 -2 -273q0 -16 -11 -17q-35 -4 -106 0q-13 1 -13 13l-2 790q0 11 17 12q41 2 133 -1q59 0 108 -35q54 -37 54 -93v-240zM194 547q1 67 -6 97q-6 23 -17 28l-21 2q-4 0 -15 2q-4 1 -7 -4t-2 -11
q0 -76 1 -217q0 -9 10 -13q5 -2 13 1q24 2 31 15q12 23 13 100z" />
    <glyph glyph-name="q" unicode="q" horiz-adv-x="350" 
d="M316 176q0 -49 -13 -96q-24 -85 -82 -86q-20 0 -20 -16q0 -20 10 -21h87q2 0 6 -5t4 -8v-21q-1 -18 -1 -41q0 -8 -7 -8h-83q-63 1 -69 1q-9 0 -18.5 9.5t-9.5 18.5q0 7 1.5 25t1.5 27q0 40 -26 41q-35 1 -62 46q-30 51 -30 130v473q0 165 151 165q157 0 158 -152z
M196 214v385q0 46 -9 61q-7 11 -26 11q-37 0 -37 -73v-385q0 -81 37 -81q35 0 35 82z" />
    <glyph glyph-name="r" unicode="r" horiz-adv-x="381" 
d="M342 9q5 -22 -10 -23q-19 -2 -117 1q-11 0 -13 27q-5 68 -5 151q0 151 -53 151q-7 2 -12 0q-7 -3 -7 -22q0 -157 -1 -276q0 -26 -11 -27q-54 -6 -103 -2q-12 1 -12 29l2 770q0 18 18 18q55 0 150 1q62 0 105 -26q47 -29 47 -77l-1 -197q0 -49 -29 -84q-20 -25 -45 -34
q-8 -3 -8 -6q0 -2 8 -5q19 -6 40 -25q47 -41 47 -199q0 -101 10 -145zM198 619q0 66 -44 63q-10 -1 -15 -1q-9 0 -9 -17v-176q0 -28 14 -29q5 -1 12 0q22 0 30 22q12 32 12 138z" />
    <glyph glyph-name="s" unicode="s" horiz-adv-x="381" 
d="M340 178q0 -88 -45 -139t-127 -51q-71 0 -121 55q-53 59 -51 153q0 16 1 52q1 21 11 21t56.5 2t56.5 2t10 -26v-49q0 -72 39 -72q31 0 33 49l2 56q1 25 -52 77q-89 88 -98 99q-53 62 -53 113v85q0 91 43 145q46 59 134 61q72 1 115 -50q40 -48 40 -127v-99q0 -15 -11 -16
q-29 -3 -109 0q-13 0 -13 15q-1 23 2 80q1 21 -7.5 41.5t-22.5 20.5q-39 0 -39 -66v-52q0 -31 53 -88l100 -106q53 -66 53 -117v-69z" />
    <glyph glyph-name="t" unicode="t" horiz-adv-x="392" 
d="M343 682q0 -14 -17 -14q-7 0 -30 1h-36q-21 0 -21 -15l2 -645q0 -16 -11 -17q-36 -5 -114 1q-13 1 -13 17l-1 645q0 14 -12 14h-74q-16 1 -16 14q0 -11 -2 41q-2 34 2 53q4 26 18 26q124 1 309 0q14 0 15 -18q2 -62 1 -103z" />
    <glyph glyph-name="u" unicode="u" horiz-adv-x="400" 
d="M353 785l-2 -619q0 -58 -25 -102q-43 -76 -147 -76q-117 0 -152 56q-24 36 -24 139v602q0 8 3.5 13.5t9.5 5.5h107q17 0 17 -15v-311q-1 -277 -1 -270q0 -78 41 -78q36 0 36 78v576q-1 20 13 20q99 0 111.5 -1t12.5 -18z" />
    <glyph glyph-name="v" unicode="v" horiz-adv-x="430" 
d="M401 783q-31 -172 -62 -391q-37 -258 -58 -386q-3 -19 -15 -19h-122q-16 0 -19 19q-20 127 -54 393q-31 248 -55 390q-1 7 4 13t12 6q44 0 113 -1q16 0 21 -21q3 -14 13.5 -124t25.5 -178q4 -16 8 -16t7 17q10 62 21 172q9 100 15 130q3 17 17 17q72 2 112 -3
q19 -2 16 -18z" />
    <glyph glyph-name="w" unicode="w" horiz-adv-x="651" 
d="M608 787q-21 -166 -59 -377l-70 -398q-3 -17 -15 -18q-41 -5 -97 0q-13 1 -15 15q-16 162 -39 361q-3 20 -7 20t-8 -19q-7 -39 -21 -186q-15 -157 -17.5 -172.5t-16.5 -17.5q-50 -6 -102 -1q-14 1 -16 17l-56 327q-47 281 -64 450q-2 20 13 20h107q17 -2 20 -22t43 -354
q1 -11 6 -11q4 0 7 12q6 97 36 355q3 20 18 19h66q49 -2 51 -22l40 -379q1 -15 6 -15q8 0 11 19q10 64 26.5 215.5t18.5 162.5q3 19 22 18q44 2 103 2q12 -1 9 -21z" />
    <glyph glyph-name="x" unicode="x" horiz-adv-x="425" 
d="M400 22q7 -16 7 -23q0 -14 -17 -14q-4 0 -32 -1t-46 -1q-28 0 -43.5 2t-24.5 29l-42 152q-8 29 -11 29q-4 0 -12 -34q-7 -44 -31 -139l-8 -23q-6 -11 -17 -12q10 1 -114 1q-23 0 -23 18q0 4 2 8q63 152 141 382q6 17 -6 51l-107 327q-3 10 -1 20q3 11 11 10q68 -6 100 -2
q18 2 27 -26q6 -20 37 -138q7 -27 12 -27q4 0 9 16q14 57 39 149q8 27 28 26q41 0 103 -2q22 -2 17 -20q-21 -68 -131 -337q-10 -24 -4 -47q32 -122 137 -374z" />
    <glyph glyph-name="y" unicode="y" horiz-adv-x="379" 
d="M350 774q-17 -45 -52 -154q-44 -138 -54 -186q-2 -9 0 -38q-1 -156 0 -374q1 -30 -18 -31q14 1 -103 4q-20 0 -21 25q3 170 4 380q0 8 -3 28q-41 151 -110 359q-2 7 4.5 14.5t14.5 8.5q46 3 94 0q28 -2 32 -27l28 -131q8 -37 12 -37q1 0 8 37q8 45 25 131q6 23 29 25
q33 -1 92 0q20 1 20 -25q0 -5 -2 -9z" />
    <glyph glyph-name="z" unicode="z" horiz-adv-x="377" 
d="M342 12q0 -10 -7 -18t-16 -8q-189 4 -296 2q-14 0 -15 24q0 13 -3 41q-2 25 -2 41q0 13 5 27q9 25 9 26l129 478q3 12 0 22q-3 11 -12 11q-60 -3 -104 0q-29 2 -29 29q0 19 2 49q3 35 3 44q1 21 20 20q34 -1 142 0q109 2 138 4q26 2 28 -23q3 -37 -2 -68l-14 -53
l-131 -498q-6 -29 5 -30q27 -3 125 2q22 1 23 -22q2 -36 2 -100z" />
    <glyph glyph-name="bullet" unicode="&#x2022;" horiz-adv-x="1894" 
d="M1841 652q-12 -42 -20 -117q9 -8 9 -18q0 -8 -7 -15l-33 -56l-75 52q0 7 -4 21q-14 -9 -30 -28l-27 -30q-32 28 -81 59q10 22 13 56l4 59q-1 3 -4.5 10.5t-3.5 10.5q0 6 5 10l47 67q15 -9 38 -29q26 -24 37 -32q-8 -18 -12 -48q-3 -26 -7 -52q7 -6 14 -13t13 -4
q0 11 4 36t4 38q0 21 -9 35l72 51l4 -2zM1566 677q-21 -95 -22 -173l-32 -42q-20 -24 -44 -25q-52 -14 -119 -27q-3 3 -3 8q19 8 39 18.5t31 27.5q13 29 13 38q0 7 -3 13q-21 -13 -61 -56q-10 5 -75 61q9 55 12 140q3 72 5 144l4 5q22 -4 58 -3q44 1 57 0q0 -21 -5 -63.5
t-5 -63.5l2 -3l51 65q31 -23 97 -64zM1279 568l-37 -100l-90 54q6 56 7 145l2 144q52 -1 115 5l3 -2l-15 -230zM1577 340q-4 2 -5 -1q-4 -10 -4 -72q0 -22 -6 -30q1 6 -1 8q-8 -11 -13 -46q-1 -11 -6 -32q-3 -25 -19 -71q-5 -3 -10 -14q-4 8 -15 20q-5 3 -15 7q2 4 -10 14
q-9 7 -5 15q23 53 33 89q2 1 5 3q8 23 20 122q14 7 18 30q4 28 9.5 35.5t14.5 0.5q5 -3 8 -27q5 -42 1 -51zM1340 326l-2 2q1 -3 2 -3q0 2 -1 2zM1341 317q0 -1 -2 -2q1 0 2 -1q-3 0 -2 1l2 4q1 -2 0 -2zM1338 306q-4 1 -4 2q1 4 3 -1zM1339 301q-1 0 -1 2v0q2 -1 1 -2z
M1114 698q-8 -43 -10 -118q11 -8 11 -19q0 -7 -6 -14l-27 -58q-27 14 -80 44q-1 7 -6 20q-13 -10 -27 -30l-24 -33q-34 26 -86 52q6 16 7 37q1 14 0 39q-1 28 -1 40q-1 2 -6 11q-4 6 -4 10q0 5 4 9l41 72q15 -8 40 -26q28 -21 40 -28q-6 -19 -7 -50l-2 -52q22 -15 23 -15
q3 0 5 1q1 -10 1 61q0 30 -12 48l66 57l4 -2zM1444 374q-10 -15 -40 -23q-52 -12 -52 -13q-4 -1 -14.5 -11t-10.5 -13q0 -2 2 -5.5t2 -5.5q0 -3 -2 -5q-2 -1 7 -4q-1 0 -3 -2q0 -3 5 -3q-4 -1 -2 -4t1 -4q-4 1 -10 2q-11 -1 0 -6q2 1 5 0q1 0 4 -1q-1 -1 -1 -2q-1 2 -3 3
q-4 1 -6 -1q3 -23 29 -50q9 -10 13 -10q-1 -6 2 -8q35 -19 42 -34q9 -20 -11 -40q-13 -14 -45 -63q-5 -9 -21 -10q-8 -1 -48 -10q-29 -6 -48 -3q-20 3 -38.5 18.5t-18.5 31.5q0 21 21 21q43 0 54 -12q2 3 20 3q3 0 4 4q3 -5 6 -4q10 2 14 2q-2 -1 -3 -2q1 -2 5 -4q3 0 5 7
q18 -7 22 -2q3 3 -5 3l7 4q1 -4 -2 -8t-3 -5q0 -3 5 -4t16 -2q2 4 11 7q-2 3 -2 6q0 4 3 9.5t3 7.5q0 3 -7 5q-10 2 -19 -10q-3 3 -6 3t-8.5 -3t-8.5 -3q-4 0 -7 3q7 0 17 6q1 2 -3 3.5t-4 3.5q-5 -1 -5 -4q-8 9 -6 11q14 5 33 22q8 16 -9 32q-7 11 -26 27q-7 0 -15 2
q-2 3 -31 37q-19 22 -22 40q-6 48 69 66q8 2 45 1q29 -1 40 9q21 18 40 16q7 -1 11.5 -9.5t2.5 -12.5zM1518 22q-2 -3 -5 -3t-9.5 3.5t-10.5 3.5q-5 -1 -5 -3q-1 -7 9 -8q0 -1 1 -5q-1 -2 -3 -4q-1 0 -7 4q-3 2 -7 0q1 -1 0 -10l-5 1q2 3 -1 5q-8 5 -12 -1q1 -4 0 -10
q-4 -5 -7 0q-2 2 -1 6v7q-1 3 -5 2q-3 0 -5 -6t-4 -6l-4 2q-3 3 0 6q4 4 5 4q1 7 -12 9q-4 1 -8.5 -7t-10.5 -7q-3 2 -4 2q8 5 18 15q2 6 -9 14q3 3 7 11q-1 4 -4 4q-1 0 -8 -3q-4 -2 -7 0l1 4q7 -3 14 1l-3 6q13 6 12 16q9 -4 12 2q-1 2 -4 3l2 4q2 2 6 -1.5t6 -3.5t3 2
q3 2 -0.5 9t-1.5 7q4 0 4 -4v-7q1 -5 3 -6q4 -2 7 0q-1 6 1.5 7.5t5.5 1.5q10 0 8 -18q4 1 4 4q2 -1 6 -2.5t2 -4.5q-4 -3 -4 -4q2 -5 4 -5q1 0 5.5 2.5t7.5 0.5q4 -3 1 -5q-13 -8 -13 -10l2 -4q8 7 11 1q2 -4 -2 -5q-3 -1 -8 0q-2 0 -3 -3q2 -7 10 -7q12 -1 15 -3t0 -4z
M1117 385q-1 1 -1 2zM1106 386q-2 0 -2 1l1 1zM1097.5 386.5q-1.5 -0.5 0 0t0 0zM1078 390q-2 1 -1 2q1 0 1 -2zM1182 374q0 -1 -26 -32q-16 -19 -47 -19q-23 0 -55 11q-8 2 -17 4.5t-11 10.5q-1 1 3 5q3 3 -1 4.5t-10 3.5q-12 11 -12 23q0 15 21 15q14 0 23 -10q1 1 2 1
q-1 5 2 5q0 1 3 -9q4 2 3 5q3 -5 5 -6q2 -3 5 1q-1 -7 1 -8q2 1 4 4q1 -3 4 -6q1 1 3 4q2 -4 5 -4q2 1 3 2q0 -2 2 -3q3 -1 11 2l-2 4q0 -4 5 -5q2 1 3 4q0 -3 2 -5q4 0 10 6q-1 -3 4 -4q5 2 4 8q-3 2 -1 5q0 -2 2 -5q4 -1 7 2.5t6 7.5q0 -2 2 -3q2 0 3 3l1 3q15 4 26 -4
t11 -14q0 -4 -4 -7zM1400 29q0 -2 -3 -4q-1 1 -1 3q2 5 4 1zM1386 3q0 -2 -7 0q4 5 7 5q1 0 0 -5zM1286 134q-7 -3 -17 -2q-33 -2 -46 -13q-2 3 -2 5q0 3 4.5 8t5 7.5t3.5 0.5q1 -2 2 -5q3 1 33 -3q6 1 17 2zM838 697q-13 -96 -7 -174l-28 -44q-18 -25 -42 -29
q-51 -18 -117 -37q-3 4 -3 8q18 10 37.5 22t27.5 29q10 29 10 37q0 9 -4 16q-19 -16 -56 -61q-10 4 -80 54q3 31 3 68q0 40 -4 108q-4 82 -5 108l3 5q23 -1 58 3q44 4 57 5q2 -22 0 -65q-1 -42 1 -63l2 -3l45 69q33 -20 102 -56zM1182 201q2 -7 -14 -24q2 -8 -1 -17
q-3 1 -7 -2q-1 -4 4 -5l6 3q-14 -8 -3 -21q-2 0 -5 -1q0 -2 4 -5t3 -5q-6 -13 -42 -16q-25 -3 -76 -6q-10 0 -30.5 -5t-30.5 -5q-9 0 -16.5 3t-10.5 20q-4 21 -10 29t-7 47q0 49 10 78q0 6 1 18l10 43t14 38q5 8 13 8q5 0 8 -9q4 -12 2 -35q-2 -24 0 -35q2 0 52 -11
q32 -6 53 -6q11 0 22 2q1 -2 1 -5q-4 -4 -4 -5q2 -5 1 -6q-8 -10 -13 -9q-31 3 -39 2t-12.5 -14.5t-9.5 -13.5q-46 1 -53 26q0 1 -2 1q-2 -1 -3 -2q-7 -28 2 -40q9 -4 28 -14q10 -5 29 -9q25 -4 30 -5q-3 -5 1 -6q2 1 4 4q-1 -5 2 -10q1 0 5 9q1 -1 -1 -7q0 -1 3 -0.5t6 -3
t5 -3.5q8 0 23 5q-3 3 -1 5q2 -5 4 -3q5 3 9 12.5t7 11.5q12 6 19 6t10 -7zM550 550l-37 -87l-9 -1q-53 29 -90 42q-5 4 -4 11l2 13q-3 21 -4 58q0 41 -2 57q-5 6 -19 5l-4 30q-1 17 5 27q15 1 15 7l-2 29q-1 17 5 25q37 10 109 35l6 -5q-2 -40 5 -82q2 -3 9.5 -2.5
t9.5 -2.5l3 -53q-3 -4 -12.5 -4t-9.5 -8q0 -19 2 -58q3 -26 22 -36zM917 384q0 -13 -6 -31q-8 -25 -9 -30q2 -22 -4 -61q-9 -39 -36 -114q-17 -35 -25 -34q-24 5 -45 39q-24 40 -39 49q5 9 5 17q0 11 -9 28q-10 21 -11 29q-12 52 -12 56q0 15 7 27q5 7 13 -1q16 -13 30 -44
q15 -35 27 -47q11 19 42 53q3 8 12 18.5t16 33.5t17 32q5 4 14 3t11 -8t2 -15zM705 86q3 0 -28 1q-3 0 -4.5 6t-2.5 7q-23 31 -25 34q-12 19 -15 38q-2 4 -7 13q-16 31 -16 79q0 10 -3 32.5t-3 33.5q0 31 20 44q3 2 7 2q19 0 28 -36q8 -42 17 -84q10 -49 30 -81
q9 -15 19 -29q11 -18 11 -31q0 -10 -6 -19t-22 -10zM379 538q-41 -86 -161 -81q-42 1 -80 24q-41 24 -58 62l-13 74q9 24 20.5 49.5t35.5 31.5q8 6 25 14q-1 -76 28 -111l14 -12l3 2q-7 43 -33 125l1 5l105 68q23 -14 93 -16q2 -10 -1 -37q-3 -23 1 -37q-2 -3 -8 -4h-8
q-3 -1 -3 -7q2 -41 12 -124q2 -3 4 -3q-3 0 13 7q3 6 9 7q1 -12 1 -37zM603 60q-5 0 -16 4.5t-17 4.5q-7 0 -10.5 -3.5t-2.5 -15t-3 -12.5q-15 -2 -30 -5q-17 -2 -29 5q-9 4 -19 4q-18 0 -36 -17.5t-30 -17.5q-6 0 -12 5q-20 16 -25 52q-3 33 -5 65q-1 3 2 8t8 3q4 17 3 46
q-2 34 0 47q1 39 14 115q4 15 19 15q6 0 8 -5l21 -36q11 -21 15 -40q2 -12 2 -27q0 -10 -2 -31.5t-2 -31.5q0 -14 2 -26q26 4 46 4q63 0 96 -42q-1 -4 1 -10q18 -21 18 -41q0 -17 -16 -17zM1430 558q-1 10 2 28t3 24q0 12 -5 20q-1 0 -9 6q-6 3 -9 0q-5 -57 -1 -71q3 0 8 -4
t7 -4q3 0 4 1zM713 568q-2 7 0 37q1 23 -6 35q-1 0 -10 5q-6 3 -9 -1q0 -57 6 -71q1 0 10 -5q6 -3 9 0zM322 553l-15 131q2 8 -5 11t-13 -1l8 -103q-8 -9 -25 -17q-22 -11 -28 -15v-4q31 -15 75 -5z" />
    <glyph glyph-name="nonbreakingspace" unicode="&#xa0;" horiz-adv-x="500" 
 />
    <glyph glyph-name="emdash" unicode="&#x2014;" horiz-adv-x="5160" 
d="M5078 306h-2191q-58 -14 -144 -55.5t-145 -84.5l-169 93q-76 37 -141 47h-1535q-9 0 -204.5 -7.5t-299.5 -7.5q-86 0 -121 5q-19 2 -31.5 15.5t-12.5 29.5q0 31 44 40l630 -15q460 -11 877 -11q326 0 633 6q52 1 162 58q95 48 168 102q213 -155 365 -155q-1 -2 -9 -2h334
q1460 1 1210 1q194 0 303 4q164 5 277 7q42 1 42 -28q0 -15 -13 -28.5t-29 -13.5z" />
    <glyph glyph-name="quotedblleft" unicode="&#x201c;" horiz-adv-x="408" 
d="M379 670q1 -47 -1 -129q0 -12 -15 -12q-86 0 -122 1q-18 0 -18 13q-1 36 1 223q0 49 56 71q35 13 77 13q17 0 17 -8v-30q-1 -26 -1 -32.5t-11 -6.5q-24 0 -41 -10q-20 -13 -20 -35v-36q0 -9 16 -8q36 1 48 0q14 -2 14 -14zM179 670q1 -47 -1 -129q0 -12 -15 -12
q-86 0 -122 1q-18 0 -18 13q-1 36 1 223q0 49 56 71q35 13 77 13q17 0 17 -8v-30q-1 -26 -1 -32.5t-11 -6.5q-24 0 -41 -10q-20 -13 -20 -35v-36q0 -9 16 -8q36 1 48 0q14 -2 14 -14z" />
    <glyph glyph-name="quotedblright" unicode="&#x201d;" horiz-adv-x="408" 
d="M377 831q1 -36 -1 -223q0 -49 -56 -71q-35 -13 -77 -13q-17 0 -17 8v30q1 26 1 32.5t11 6.5q24 0 42.5 11.5t18.5 33.5v36q0 9 -16 8q-36 -1 -48 0q-14 2 -14 14q-1 47 1 129q0 12 15 12q86 0 122 -1q18 0 18 -13zM177 831q1 -36 -1 -223q0 -49 -56 -71q-35 -13 -77 -13
q-17 0 -17 8v30q1 26 1 32.5t11 6.5q24 0 42.5 11.5t18.5 33.5v36q0 9 -16 8q-36 -1 -48 0q-14 2 -14 14q-1 47 1 129q0 12 15 12q86 0 122 -1q18 0 18 -13z" />
    <glyph glyph-name="quoteleft" unicode="&#x2018;" horiz-adv-x="216" 
d="M179 670q1 -47 -1 -129q0 -12 -15 -12q-86 0 -122 1q-18 0 -18 13q-1 36 1 223q0 49 56 71q35 13 77 13q17 0 17 -8v-30q-1 -26 -1 -32.5t-11 -6.5q-24 0 -41 -10q-20 -13 -20 -35v-36q0 -9 16 -8q36 1 48 0q14 -2 14 -14z" />
    <glyph glyph-name="quoteright" unicode="&#x2019;" horiz-adv-x="220" 
d="M177 831q1 -36 -1 -223q0 -49 -56 -71q-35 -13 -77 -13q-17 0 -17 8v30q1 26 1 32.5t11 6.5q24 0 42.5 11.5t18.5 33.5v36q0 9 -16 8q-36 -1 -48 0q-14 2 -14 14q-1 47 1 129q0 12 15 12q86 0 122 -1q18 0 18 -13z" />
    <glyph glyph-name="glyph91" horiz-adv-x="500" 
 />
  </font>
</defs>
</svg>
